User Tag List

Page 1 of 3 1 2 3 LastLast
Results 1 to 10 of 23

Thread: DirectShow Object does not detect new codecs like H264 videos

  1. #1
    Clicker Fusion 2.5 DeveloperAndroid Export ModuleHTML5 Export ModuleiOS Export ModuleUniversal Windows Platform Export ModuleSWF Export ModuleMac Export Module
    Fusion 2.5 (Steam)Fusion 2.5 Developer (Steam)Android Export Module (Steam)HTML5 Export Module (Steam)iOS Export Module (Steam)Universal Windows Platform Export Module (Steam)
    Koji_Kabuto's Avatar
    Join Date
    Jul 2006
    Location
    Venezuela
    Posts
    2,851
    Mentioned
    2 Post(s)
    Tagged
    0 Thread(s)

    Exclamation DirectShow Object does not detect new codecs like H264 videos

    This report it 4 months ago, in truth there is no response to this?

    No one most used video intro for your PC games?

    Simon send me a video of the same Windows wmv and it did not reproduce it, but I think that this should be used video MP4 (H264), since it is a standard today on all platforms.

    http://bugbox.clickteam.com/issues/2155

  2. #2
    Clicker Fusion 2.5 DeveloperAndroid Export ModuleHTML5 Export ModuleiOS Export ModuleSWF Export Module
    Fusion 2.5 (Steam)Fusion 2.5 Developer (Steam)Android Export Module (Steam)HTML5 Export Module (Steam)iOS Export Module (Steam)Universal Windows Platform Export Module (Steam)

    Join Date
    Apr 2007
    Location
    Australia
    Posts
    1,151
    Mentioned
    0 Post(s)
    Tagged
    0 Thread(s)

  3. #3
    Clicker Fusion 2.5 DeveloperAndroid Export ModuleHTML5 Export ModuleiOS Export ModuleUniversal Windows Platform Export ModuleSWF Export ModuleMac Export Module
    Fusion 2.5 (Steam)Fusion 2.5 Developer (Steam)Android Export Module (Steam)HTML5 Export Module (Steam)iOS Export Module (Steam)Universal Windows Platform Export Module (Steam)
    Koji_Kabuto's Avatar
    Join Date
    Jul 2006
    Location
    Venezuela
    Posts
    2,851
    Mentioned
    2 Post(s)
    Tagged
    0 Thread(s)
    Thanks RhysD, had already tested it with Fernando and does not support H264 videos.

  4. #4
    Clickteam Clickteam
    Danny's Avatar
    Join Date
    Aug 2007
    Location
    United Kingdom
    Posts
    3,008
    Mentioned
    21 Post(s)
    Tagged
    2 Thread(s)
    Hmm, this is strange. I have and still am using MP4 (h264) in my developments and they work just fine with Active DirectShow...

  5. #5
    Clicker Fusion 2.5 DeveloperAndroid Export ModuleHTML5 Export ModuleiOS Export ModuleUniversal Windows Platform Export ModuleSWF Export ModuleMac Export Module
    Fusion 2.5 (Steam)Fusion 2.5 Developer (Steam)Android Export Module (Steam)HTML5 Export Module (Steam)iOS Export Module (Steam)Universal Windows Platform Export Module (Steam)
    Koji_Kabuto's Avatar
    Join Date
    Jul 2006
    Location
    Venezuela
    Posts
    2,851
    Mentioned
    2 Post(s)
    Tagged
    0 Thread(s)
    I do not work and look what I tried my videos, videos of others, one that you sent me Simon and nothing...

  6. #6
    Clickteam Clickteam
    Danny's Avatar
    Join Date
    Aug 2007
    Location
    United Kingdom
    Posts
    3,008
    Mentioned
    21 Post(s)
    Tagged
    2 Thread(s)
    Can you send me an MFA and your video you're trying to use?

  7. #7
    Clicker Fusion 2.5 DeveloperAndroid Export ModuleHTML5 Export ModuleiOS Export ModuleUniversal Windows Platform Export ModuleSWF Export ModuleMac Export Module
    Fusion 2.5 (Steam)Fusion 2.5 Developer (Steam)Android Export Module (Steam)HTML5 Export Module (Steam)iOS Export Module (Steam)Universal Windows Platform Export Module (Steam)
    Koji_Kabuto's Avatar
    Join Date
    Jul 2006
    Location
    Venezuela
    Posts
    2,851
    Mentioned
    2 Post(s)
    Tagged
    0 Thread(s)
    Of course Danny, send you private a dropbox link. Let me prepare it...

  8. #8
    Clicker Fusion 2.5 DeveloperAndroid Export ModuleHTML5 Export ModuleiOS Export ModuleUniversal Windows Platform Export ModuleSWF Export ModuleMac Export Module
    Fusion 2.5 (Steam)Fusion 2.5 Developer (Steam)Android Export Module (Steam)HTML5 Export Module (Steam)iOS Export Module (Steam)Universal Windows Platform Export Module (Steam)
    Koji_Kabuto's Avatar
    Join Date
    Jul 2006
    Location
    Venezuela
    Posts
    2,851
    Mentioned
    2 Post(s)
    Tagged
    0 Thread(s)
    Ready Danny, now send you a private message with the link.

  9. #9
    Clickteam Clickteam
    Fernando's Avatar
    Join Date
    Dec 2006
    Posts
    6,248
    Mentioned
    177 Post(s)
    Tagged
    3 Thread(s)
    Quote Originally Posted by Koji_Kabuto View Post
    Thanks RhysD, had already tested it with Fernando and does not support H264 videos.
    Oh yes it does, it plays all format installed in your PC.

    please post the video info

    using this tool: mediainfo

    http://sourceforge.net/projects/mediainfo/

    please check with this tool

    http://www.softella.com/dsfm/index.en.htm

    is free. check filter properties and see if the video FourCC:MP4 is available.
    Regards,


    Fernando Vivolo

    ... new things are coming ...

  10. #10
    Clicker Fusion 2.5 DeveloperAndroid Export ModuleHTML5 Export ModuleiOS Export ModuleUniversal Windows Platform Export ModuleSWF Export ModuleMac Export Module
    Fusion 2.5 (Steam)Fusion 2.5 Developer (Steam)Android Export Module (Steam)HTML5 Export Module (Steam)iOS Export Module (Steam)Universal Windows Platform Export Module (Steam)
    Koji_Kabuto's Avatar
    Join Date
    Jul 2006
    Location
    Venezuela
    Posts
    2,851
    Mentioned
    2 Post(s)
    Tagged
    0 Thread(s)
    Hi Fernando,

    Here you have my intro video Mediainfo analysis:

    Code:
    General
    Complete name                            : /Users/kabuto/Desktop/Umi Force New/Videos/App/forceintro.mp4
    Format                                   : MPEG-4
    Format profile                           : Base Media / Version 2
    Codec ID                                 : mp42
    File size                                : 39.4 MiB
    Duration                                 : 1mn 36s
    Overall bit rate mode                    : Variable
    Overall bit rate                         : 3 419 Kbps
    Encoded date                             : UTC 2013-09-21 22:33:48
    Tagged date                              : UTC 2013-09-21 22:34:28
    Writing application                      : HandBrake 0.9.9 2013051800
    
    Video
    ID                                       : 1
    Format                                   : AVC
    Format/Info                              : Advanced Video Codec
    Format profile                           : High@L4.0
    Format settings, CABAC                   : Yes
    Format settings, ReFrames                : 4 frames
    Codec ID                                 : avc1
    Codec ID/Info                            : Advanced Video Coding
    Duration                                 : 1mn 27s
    Bit rate                                 : 3 320 Kbps
    Width                                    : 1 280 pixels
    Height                                   : 720 pixels
    Display aspect ratio                     : 16:9
    Frame rate mode                          : Constant
    Frame rate                               : 30.000 fps
    Color space                              : YUV
    Chroma subsampling                       : 4:2:0
    Bit depth                                : 8 bits
    Scan type                                : Progressive
    Bits/(Pixel*Frame)                       : 0.120
    Stream size                              : 34.8 MiB (88%)
    Writing library                          : x264 core 130 r2273 b3065e6
    Encoding settings                        : cabac=1 / ref=3 / deblock=1:0:0 / analyse=0x3:0x113 / me=hex / subme=7 / psy=1 / psy_rd=1.00:0.00 / mixed_ref=1 / me_range=16 / chroma_me=1 / trellis=1 / 8x8dct=1 / cqm=0 / deadzone=21,11 / fast_pskip=1 / chroma_qp_offset=-2 / threads=12 / lookahead_threads=2 / sliced_threads=0 / nr=0 / decimate=1 / interlaced=0 / bluray_compat=0 / constrained_intra=0 / bframes=3 / b_pyramid=2 / b_adapt=1 / b_bias=0 / direct=1 / weightb=1 / open_gop=0 / weightp=2 / keyint=300 / keyint_min=30 / scenecut=40 / intra_refresh=0 / rc_lookahead=40 / rc=crf / mbtree=1 / crf=20.0 / qcomp=0.60 / qpmin=0 / qpmax=69 / qpstep=4 / vbv_maxrate=25000 / vbv_bufsize=31250 / crf_max=0.0 / nal_hrd=none / ip_ratio=1.40 / aq=1:1.00
    Encoded date                             : UTC 2013-09-21 22:33:48
    Tagged date                              : UTC 2013-09-21 22:34:28
    Color primaries                          : BT.709
    Transfer characteristics                 : BT.709
    Matrix coefficients                      : BT.709
    Color range                              : Limited
    
    Audio #1
    ID                                       : 2
    Format                                   : AAC
    Format/Info                              : Advanced Audio Codec
    Format profile                           : LC
    Codec ID                                 : 40
    Duration                                 : 1mn 36s
    Bit rate mode                            : Variable
    Bit rate                                 : 168 Kbps
    Maximum bit rate                         : 197 Kbps
    Channel(s)                               : 2 channels
    Channel positions                        : Front: L R
    Sampling rate                            : 48.0 KHz
    Compression mode                         : Lossy
    Stream size                              : 1.93 MiB (5%)
    Title                                    : Stereo
    Language                                 : English
    Encoded date                             : UTC 2013-09-21 22:33:48
    Tagged date                              : UTC 2013-09-21 22:34:28
    
    Audio #2
    ID                                       : 3
    Format                                   : AC-3
    Format/Info                              : Audio Coding 3
    Mode extension                           : CM (complete main)
    Format settings, Endianness              : Big
    Codec ID                                 : ac-3
    Duration                                 : 1mn 36s
    Bit rate mode                            : Constant
    Bit rate                                 : 224 Kbps
    Channel(s)                               : 2 channels
    Channel positions                        : Front: L R
    Sampling rate                            : 48.0 KHz
    Bit depth                                : 16 bits
    Compression mode                         : Lossy
    Stream size                              : 2.58 MiB (7%)
    Title                                    : Surround
    Language                                 : English
    Encoded date                             : UTC 2013-09-21 22:33:48
    Tagged date                              : UTC 2013-09-21 22:34:28
    Anyway I love Danny to try the Directshow, already send you my videos and an MFA in private.

    Thanks,

Page 1 of 3 1 2 3 LastLast

Similar Threads

  1. DirectShow Object-Revision
    By Koji_Kabuto in forum Fusion 2.5
    Replies: 16
    Last Post: 3rd August 2014, 06:24 PM
  2. Problem with the DirectShow object
    By Lord_Wezel in forum Multimedia Fusion 2 - Technical Support
    Replies: 4
    Last Post: 1st January 2012, 07:19 PM
  3. DirectShow Object
    By izac in forum Multimedia Fusion 2 - Technical Support
    Replies: 4
    Last Post: 29th January 2010, 09:10 PM
  4. directshow object
    By blankman in forum Multimedia Fusion 2 - Technical Support
    Replies: 4
    Last Post: 15th April 2007, 01:51 PM
  5. AVI Object and Codecs
    By Greg in forum Multimedia Fusion 2 - Technical Support
    Replies: 5
    Last Post: 30th March 2007, 06:49 PM

Posting Permissions

  • You may not post new threads
  • You may not post replies
  • You may not post attachments
  • You may not edit your posts
  •